MobiTehk
Welcome on the MobiTehk Forum.

To take full advantage of everything offered by our forum, please log in if you are already a member or join our community if you're not yet....

Enjoy your stay with us.
Logo
MobiTehk

You are not connected. Please login or register

View previous topic View next topic Go down  Message [Page 1 of 1]

DaDyKinG
#1

on Wed Dec 01, 2010 6:55 pm

avatar
Admin
Admin
Devil 2010 PPVRIP XviD-IFLIX











http://www.imdb.com/title/tt1314655/
http://img148.images
Release Information :-

Release Name: Devil.2010.PPVRIP.XviD-IFLIX
Size: 941 MB
Audio Quality: MP3 128 kbps
Video Quality: XviD 720×480 1 500 Kbps
Runtime: 80mins

Video
ID : 0
Format : MPEG-4 Visual
Format settings, BVOP : Yes
Format settings, QPel : No
Format settings, GMC : No warppoints
Format settings, Matrix : Default (H.263)
Codec ID : DX50
Codec ID/Hint : DivX 5
Duration : 1h 20mn
Bit rate : 1 500 Kbps
Width : 720 pixels
Height : 480 pixels
Display aspect ratio : 4:3
Frame rate : 29.970 fps
Standard : NTSC
Resolution : 24 bits
Colorimetry : 4:2:0
Scan type : Progressive
Bits/(Pixel*Frame) : 0.145
Stream size : 861 MiB (91%)
Writing library : DivX 2151n

Audio
ID : 1
Format : MPEG Audio
Format version : Version 1
Format profile : Layer 3
Codec ID : 55
Codec ID/Hint : MP3
Duration : 1h 20mn
Bit rate mode : Constant
Bit rate : 128 Kbps
Channel(s) : 2 channels
Sampling rate : 48.0 KHz
Resolution : 16 bits
Stream size : 73.5 MiB (8%)
Alignment : Aligned on interleaves
Interleave, duration : 33 ms (1.00 video frame)

download


http://www.filesonic.com/file/37525699/Warezusa.org_Devil.part1.rar
http://www.filesonic.com/file/37525507/Warezusa.org_Devil.part2.rar
http://www.filesonic.com/file/37524251/Warezusa.org_Devil.part3.rar
or
http://rapidshare.com/files/434248861/Warezusa.org_Devil.part1.rar
http://rapidshare.com/files/434248155/Warezusa.org_Devil.part2.rar
http://rapidshare.com/files/434248780/Warezusa.org_Devil.part3.rar

View user profile http://www.mobitehk.com/

View previous topic View next topic Back to top  Message [Page 1 of 1]

Permissions in this forum:
You cannot reply to topics in this forum